travismk
一代宗师

[2020] [其他] [其他] [WEB-1080P] 奥斯维辛报告 The.Auschwitz.Report.2021.1080p.AMZN.WEBRip.DDP5.1.x264-JKP 5.83GB

-->

帖子完整标题:奥斯维辛报告 The.Auschwitz.Report.2021.1080p.AMZN.WEBRip.DDP5.1.x264-JKP 5.83GB



◎译  名 奥斯维辛报告/The Auschwitz Report
◎片  名 Správa
◎年  代 2020
◎产  地 斯洛伐克
◎类  别 历史 / 战争
◎语  言 斯洛伐克语
◎上映日期 
◎豆瓣评分 /10 from 0 users
◎豆瓣链接 https://movie.douban.com/subject/34983370/
◎片  长 94分钟
◎导  演 彼得·比布亚克 Peter Bebjak
◎主  演 诺埃尔·楚佐 Noel Czuczor
      彼得·恩德雷吉卡 Peter Ondrejicka
      沃伊切赫·麦克瓦尔达斯基 Wojciech Mecwaldowski
      卡米勒·诺辛斯基 Kamil Nozynski
      克萨韦里·斯伦基尔 Ksawery Szlenkier
      米哈尔·雷兹 Michal Rezny
      亚历山德·明瑟 Aleksander Mincer
      亚采克·贝勒 Jacek Beler
      弗里兰·坦科斯 Florian Panzner
      克里斯托夫·巴赫 Christoph Bach
      大卫·齐梅尔席德 David Zimmerschied
      拉尔斯·鲁道夫 Lars Rudolph
      约翰·汉纳 John Hannah
      玛尔塔·马托娃 Marta Matová
      奥德·马利 Ondrej Maly

◎标  签 战争 | 斯洛伐克 | 历史 | 二战 | 电影 | 斯洛伐克电影 | 捷克斯洛伐克 | 历史片(反复看)

◎简  介

  根据Alfred Wetzler的著作《但丁没看见》改编,讲述两个年轻的斯洛伐克犹太人逃离奥斯威辛集中营,并撰写了关于死亡营工作方式的详细报告。奥斯维辛一共有12人成功逃脱,其中有两人是斯洛伐克人。

Video
ID : 1
Format : AVC
Format/Info : Advanced Video Codec
Format profile : [email protected]
Format settings : CABAC / 4 Ref Frames
Format settings, CABAC : Yes
Format settings, Reference frames : 4 frames
Codec ID : V_MPEG4/ISO/AVC
Duration : 1 h 34 min
Bit rate mode : Constant
Bit rate : 8 237 kb/s
Nominal bit rate : 10 000 kb/s
Width : 1 920 pixels
Height : 1 080 pixels
Display aspect ratio : 16:9
Frame rate mode : Constant
Frame rate : 24.000 FPS
Color space : YUV
Chroma subsampling : 4:2:0
Bit depth : 8 bits
Scan type : Progressive
Bits/(Pixel*Frame) : 0.166
Stream size : 5.41 GiB (93%)
Default : Yes
Forced : No
Color range : Limited
Color primaries : BT.709
Transfer characteristics : BT.709
Matrix coefficients : BT.709

Audio
ID : 2
Format : E-AC-3
Format/Info : Enhanced AC-3
Commercial name : Dolby Digital Plus
Codec ID : A_EAC3
Duration : 1 h 34 min
Bit rate mode : Constant
Bit rate : 640 kb/s
Channel(s) : 6 channels
Channel layout : L R C LFE Ls Rs
Sampling rate : 48.0 kHz
Frame rate : 31.250 FPS (1536 SPF)
Compression mode : Lossy
Stream size : 431 MiB (7%)
Language : English
Service kind : Complete Main
Default : Yes
Forced : No

Text
ID : 3
Format : UTF-8
Codec ID : S_TEXT/UTF8
Codec ID/Info : UTF-8 Plain Text
Duration : 1 h 31 min
Bit rate : 15 b/s
Count of elements : 302
Stream size : 10.4 KiB (0%)
Language : English
Default : Yes
Forced : No





1 个附件 售价 大小 下载 时间

The.Auschwitz.Report.2021.1080p.AMZN.WEBRip.DDP5.1.x264-JKP.torrent 0 金币 15.23K 2002 次 1月前

#1楼
发帖时间:2021-09-16 18:03:49   |   回复数:0
游客组