原生系统
一派掌门

[2024] [大陆] [剧情] [连载] [BT下载][庆余年 第二季][全36集][WEB-MKV/每集约2GB][国语内封简繁软字幕][1080P][H264][无水印广告][Vampire]

-->


◎译  名 Joy of Life S02 / 庆余年2

◎片  名 庆余年 第二季

◎年  代 2024

◎产  地 中国大陆

◎类  别 剧情 / 古装

◎语  言 汉语普通话

◎上映日期 2024-05-16(中国大陆)

◎IMDb评分 6.9/10 from 15 users

◎IMDb链接 https://www.imdb.com/title/tt27935747

◎豆瓣评分 7.2/10 from 186712 users

◎豆瓣链接 https://movie.douban.com/subject/34937650

◎集  数 36

◎片  长 45分钟

◎导  演 孙皓 Hao Sun

◎编  剧 王倦 Juan Wang / 猫腻 Mao Ni

◎主  演 张若昀 Ruoyun Zhang

       李沁 Qin Li

       陈道明 Daoming Chen

       吴刚 Gang Wu

       田雨 Yu Tian

       李小冉 Xiaoran Li

       俞飞鸿 Faye Yu

       袁泉 Quan Yuan

       毛晓彤 Xiaotong Mao

       郭麒麟 Kevin Guo

       宋轶 Yi Song

       辛芷蕾 Zhilei Xin

       宁理 Li Ning

       刘端端 Duanduan Liu

       张昊唯 Haowei Zhang

       付辛博 Xinbo Fu

       高曙光 Shuguang Gao

       赵柯 Karina Zhao

       于洋 Yang Yu

       李强 Qiang Li

       刘桦 Hua Liu

       佟梦实 Mengshi Tong

       郭子凡 Zifan Guo

       金晨 Chen Jin

       王楚然 Churan Wang

       高露 Lu Gao

       王晓晨 Xiaochen Wang

       隋俊波 Junbo Sui

       归亚蕾 Ya-lei Kuei

       余皑磊 Ailei Yu

       毕彦君 Yanjun Bi

       罗二羊 Eryang Luo

       吴幸键 Xingjian Wu

       宣言 Yan Xuan

       王庆祥 Qingxiang Wang

       徐志胜 Zhisheng Xu

       崔志刚 Zhigang Cui

       傅迦 Jia Fu

       姚安濂 Anlian Yao

       秦焰 Yan Qin

       沈晓海 Xiaohai Shen

       王同辉 Tonghui Wang

       冯兵 Bing Feng

       常铖 Cheng Chang

       王建国 Jianguo Wang

       刘宇桥 Yuqiao Liu

       冯恩鹤 Enhe Feng

       赵振廷 Zhenting Zhao

       董可飞 Kefei Dong

       李俊贤 Junxian Li

       崔鹏 Peng Cui

       贾景晖 Jinghui Jia

       王天辰 Tianchen Wang

       代文雯 Wenwen Dai

       王成阳 Cheng-yang Wang

       张弛 Chi Zhang

       左凌峰 Lingfeng Zuo

       刘同 Tong Liu

       张维伊 Weiyi Zhang

       东靖川 Jingchuan Dong

       杨彤 Tong Yang

       孙亦沐 Louis Sun

       于小鸣 Xiaoming Yu

       魏炳桦 Binghua Wei

       李珞桉 Luoan Li

       刘同 Tong Liu


◎简  介


  该剧改编自猫腻同名畅销小说,承接上季,范闲(张若昀 饰)率领使团回归途中,二皇子以费介、范思辙以及滕家遗孤的安危来威胁范闲,逼他向自己俯首称臣,二人的矛盾就此激发。范闲所面对的抱月楼迷局,以及接踵而至的春闱危机,都是二皇子精心给范闲布下的陷阱。

  范闲与林婉儿如愿大婚,紧接着,范闲接手内库,却发现内库负债累累。 范闲拒绝了庆余堂大掌柜的相助,决定靠自己的力量解决内库危机,范闲相约城中众商贾相聚苍山,以售卖“库债”为机筹集了两千多万银两,解决了内库空虚问题。

  悬空寺上,庆帝遭遇三连刺杀,范闲出手相救却导致武功全废。危机四伏,压力陡增,范闲别无选择,他必须以这样的身体下江南,挑战庞大的势力与既定的游戏规则,以求彻底夺回内库。


General


Complete name                  : 庆余年.第二季.Joy.of.Life.S02.2024.Chinese.EP01.1080P.Disney.WEB-DL.H264.AAC-Vampire.mkv

Format                         : Matroska

Format version                 : Version 4

File size                      : 2.18 GiB

Duration                       : 45 min 27 s

Overall bit rate mode          : Variable

Overall bit rate               : 6 873 kb/s

Frame rate                     : 25.000 FPS

Movie name                     : 庆余年.第二季.Joy.of.Life.S02.2024.Chinese.EP01.1080P.Disney.WEB-DL.H264.AAC-Vampire

Writing application            : mkvmerge v18.0.0 ('Apricity') 64-bit

Writing library                : libebml v1.3.5 + libmatroska v1.4.8

Cover                          : Yes

Attachments                    : cover.jpg


Video

ID                             : 1

Format                         : AVC

Format/Info                    : Advanced Video Codec

Format profile                 : High@L4

Format settings                : CABAC / 4 Ref Frames

Format settings, CABAC         : Yes

Format settings, Reference fra : 4 frames

Codec ID                       : V_MPEG4/ISO/AVC

Duration                       : 45 min 27 s

Bit rate mode                  : Variable

Bit rate                       : 6 743 kb/s

Maximum bit rate               : 12.7 Mb/s

Width                          : 1 920 pixels

Height                         : 1 080 pixels

Display aspect ratio           : 16:9

Frame rate mode                : Constant

Frame rate                     : 25.000 FPS

Color space                    : YUV

Chroma subsampling             : 4:2:0

Bit depth                      : 8 bits

Scan type                      : Progressive

Bits/(Pixel*Frame)             : 0.130

Time code of first frame       : 00:00:00;00

Stream size                    : 2.14 GiB (98%)

Title                          : Vampire制作分享作品

Language                       : Chinese

Default                        : Yes

Forced                         : No

Color range                    : Limited

Color primaries                : BT.709

Transfer characteristics       : BT.709

Matrix coefficients            : BT.709


Audio

ID                             : 2

Format                         : AAC LC

Format/Info                    : Advanced Audio Codec Low Complexity

Codec ID                       : A_AAC-2

Duration                       : 45 min 27 s

Bit rate                       : 125 kb/s

Channel(s)                     : 2 channels

Channel layout                 : L R

Sampling rate                  : 48.0 kHz

Frame rate                     : 46.875 FPS (1024 SPF)

Compression mode               : Lossy

Stream size                    : 40.8 MiB (2%)

Title                          : 汉语普通话

Language                       : Chinese

Default                        : Yes

Forced                         : No


Text #1

ID                             : 3

Format                         : UTF-8

Codec ID                       : S_TEXT/UTF8

Codec ID/Info                  : UTF-8 Plain Text

Duration                       : 42 min 57 s

Bit rate                       : 49 b/s

Frame rate                     : 0.275 FPS

Count of elements              : 710

Stream size                    : 15.5 KiB (0%)

Title                          : 简体中文(Simplified Chinese)

Language                       : Chinese

Default                        : Yes

Forced                         : No


Text #2

ID                             : 4

Format                         : UTF-8

Codec ID                       : S_TEXT/UTF8

Codec ID/Info                  : UTF-8 Plain Text

Duration                       : 42 min 57 s

Bit rate                       : 49 b/s

Frame rate                     : 0.275 FPS

Count of elements              : 710

Stream size                    : 15.5 KiB (0%)

Title                          : 繁体中文(Traditional Chinese)

Language                       : Chinese

Default                        : No

Forced                         : No


本人发布的种子请使用专业BT下载工具:

UT,Bitcomet,qBittorrent,Xdown开启上传后再下载!!!

使用迅雷或网盘离线可能会没速度!!!


视频的网盘资源均修改了视频后缀(如mp4或mkv)修改为.PDF,用以混淆官方视听!
并且加密了文件名,设置了独有的解压密码,请使用WinRAR解压,使用好压或其他可能会出错!!

网盘版所有压缩包下载完毕后解压第一个包即可全部解压(有些可能有解压密码),解压后自行将后缀名“PDF”修改为“mp4或者mkv”后即可正常播放!!!


已完结剧集不再分集打包上传,整体打包后分卷,无法单独下载某一集,需要全部下载后一起解压,敬请知晓!!!
请各位下载的坛友先保存至自己的网盘,然后再进行下载!
不要直接在线观看或者解压,否则会很快被网盘官方发觉并和谐!!

网盘版资源一旦和谐,皆不会免费补档,请谨慎举报资源!!!


请下载完成的朋友自觉做种一段时间,小水管出种不易,且下且珍惜,谢谢!!!


我发布的剧集均会在单帖内更新,不会单独再开新帖,有需要的请自行收藏本帖!!!


很多人反映21集无法下载完全的问题,所以重新更新了种子,有需要的自行跟进!

原来种子内的集数和目录均不用删除,直接覆盖即可,把21集删除重下就行!

删除21集后,直接用新种覆盖旧种所在的文件夹即可,会自动校验的!


18 个附件 售价 大小 下载 时间

庆余年.第二季.Joy.of.Life.S02.2024.Chinese.EP01-05.1080P.Disney.WEB-DL.H264.AAC-Vampire.torrent 0 金币 59.81K 54141 次 1月前

庆余年.第二季.Joy.of.Life.S02.2024.Chinese.EP06-07.1080P.Disney.WEB-DL.H264.AAC-Vampire.rar 0 金币 1001.96K 40456 次 1月前

庆余年.第二季.Joy.of.Life.S02.2024.Chinese.EP08.1080P.Disney.WEB-DL.H264.AAC-Vampire.rar 0 金币 1003.45K 34453 次 1月前

庆余年.第二季.Joy.of.Life.S02.2024.Chinese.EP09.1080P.Disney.WEB-DL.H264.AAC-Vampire.rar 0 金币 1005.09K 32209 次 29天前

庆余年.第二季.Joy.of.Life.S02.2024.Chinese.EP10-11.1080P.Disney.WEB-DL.H264.AAC-Vampire.rar 0 金币 1003.49K 30003 次 28天前

庆余年.第二季.Joy.of.Life.S02.2024.Chinese.EP12-13.1080P.Disney.WEB-DL.H264.AAC-Vampire.rar 0 金币 1000.51K 31067 次 27天前

庆余年.第二季.Joy.of.Life.S02.2024.Chinese.EP14-15.1080P.Disney.WEB-DL.H265.DDP2.0-Vampire.rar 0 金币 997.42K 51201 次 26天前

庆余年.第二季.Joy.of.Life.S02.2024.Chinese.EP16-17.1080P.Disney.WEB-DL.H265.DDP2.0-Vampire.rar 0 金币 997.77K 31169 次 25天前

庆余年.第二季.Joy.of.Life.S02.2024.Chinese.EP18-19.1080P.Disney.WEB-DL.H265.DDP2.0-Vampire.rar 0 金币 997.96K 36168 次 24天前

庆余年.第二季.Joy.of.Life.S02.2024.Chinese.EP20-21.1080P.Disney.WEB-DL.H264.AAC-Vampire.rar 0 金币 997.80K 26398 次 23天前

庆余年.第二季.Joy.of.Life.S02.2024.Chinese.EP22-23.1080P.Disney.WEB-DL.H265.DDP2.0-Vampire.rar 0 金币 997.65K 27353 次 22天前

庆余年.第二季.Joy.of.Life.S02.2024.Chinese.EP24-25.1080P.Disney.WEB-DL.H265.DDP2.0-Vampire.rar 0 金币 998.12K 24840 次 21天前

庆余年.第二季.Joy.of.Life.S02.2024.Chinese.EP26-27.1080P.Disney.WEB-DL.H265.DDP2.0-Vampire.rar 0 金币 997.80K 35373 次 20天前

庆余年.第二季.Joy.of.Life.S02.2024.Chinese.EP28-29.1080P.Disney.WEB-DL.H265.DDP2.0-Vampire.rar 0 金币 997.54K 25541 次 19天前

庆余年.第二季.Joy.of.Life.S02.2024.Chinese.EP30-31.1080P.Disney.WEB-DL.H265.DDP2.0-Vampire.rar 0 金币 997.10K 25554 次 18天前

庆余年.第二季.Joy.of.Life.S02.2024.Chinese.EP32-36.2160P(4K).WEB-DL.H265.AAC-Vampire.rar 0 金币 1.02M 24134 次 18天前

庆余年.第二季.Joy.of.Life.S02.2024.Chinese.EP32-33.1080P.Disney.WEB-DL.H265.DDP2.0-Vampire.rar 0 金币 997.22K 7872 次 17天前

庆余年.第二季.Joy.of.Life.S02.2024.Chinese.EP01-36.Complete.1080P.Disney.WEB-DL.H265.DDP2.0-Vampire.rar 0 金币 1.52M 3675 次 12天前

#1楼
发帖时间:2024-05-16 22:14:32   |   回复数:55
心心向容
一派掌门
感谢感谢!
1月前 #2楼
giggswa
武林高手
感谢分享
1月前 #3楼
luo128731
武林高手
感谢大佬分享好资源!!!
1月前 #4楼
原生系统
一派掌门

更06,07集!


28集的字幕问题将在后期的完结打包种子中修正!!!

1月前 #5楼
乱世笑兄
武林高手
感谢感谢!
1月前 #6楼
原生系统
一派掌门
08
1月前 #7楼
原生系统
一派掌门
09
29天前 #8楼
人生四季
武林高手
感谢感谢!
29天前 #9楼
lirong
武林高手
感谢分享
29天前 #10楼
abc5069
小有名气
感谢感谢!
29天前 #11楼
原生系统
一派掌门
10-11
28天前 #12楼
垃圾堆
一派掌门
感谢分享!!
28天前 #13楼
原生系统
一派掌门
12-13
27天前 #14楼
BCW1069
一派掌门
thx so much
27天前 #15楼
robojo
武林高手
是不是13集就大结局啊???
26天前 #16楼
原生系统
一派掌门
引用 robojo:

是不是13集就大结局啊???

还早着哪,才一半!

26天前 #17楼
垃圾堆
一派掌门
15集快快出来呀
26天前 #18楼
原生系统
一派掌门
引用 垃圾堆:

15集快快出来呀

14-15

26天前 #19楼
370376097
小有名气
666666666666
26天前 #20楼
游客组